FORUUM

Vacuum Music Foruum / Поиск выступлений Вакуум
You are not logged in.
You can take part in Vacuum fans megacollage


Home | Foruumists list | Rules | Register | Login
Vacuum Music Foruum » Vacuum discussion » Поиск выступлений Вакуум  
Author
Message Pages:  1 2 3 4
Maxim
Holy Ghost-Vacuumist
Avatar
From: Москва
Registered: 30-03-2006
Posts: 280
не с ютуба ли?)

_______________________________________
newtone.fm

03-04-2009 15:33
   
V/ov/A
Гражданин креветко
Avatar
From: RUSSI/A
Registered: 21-10-2004
Posts: 424
Нет, в DC++ скачал

03-04-2009 15:45
   
V/ov/A
Гражданин креветко
Avatar
From: RUSSI/A
Registered: 21-10-2004
Posts: 424
Вот чё у меня есть из клипов
Vacuum - Tonnes Of Attraction.mpg (В начале несколько секунд расходятся видео и звук)

      Format : MPEG-PS
      File size : 60.7 MiB
      Duration : 3mn 46s
      Overall bit rate : 2 243 Kbps
      Writing library : Mar 29 2007
   Video #224
      ID : 224 (0xE0)
      Format : MPEG Video
      Format version : Version 2
      Format profile : Main@Main
      Format settings, Matrix : Default
      Duration : 3mn 46s
      Bit rate mode : Variable
      Bit rate : 1 959 Kbps
      Nominal bit rate : 2 048 Kbps
      Width : 720 pixels
      Height : 576 pixels
      Display aspect ratio : 4/3
      Frame rate : 25.000 fps
      Standard : SECAM
      Colorimetry : 4:2:0
      Scan type : Progressive
      Bits/(Pixel*Frame) : 0.189
      Writing library : Mar 29 2007
   Audio #192
      ID : 192 (0xC0)
      Format : MPEG Audio
      Format version : Version 1
      Format profile : Layer 2
      Duration : 3mn 46s
      Bit rate mode : Constant
      Bit rate : 128 Kbps
      Channel(s) : 1 channel
      Sampling rate : 48.0 KHz
      Resolution : 16 bits
      Video delay : -40ms
Ещё один

Vacuum - Tonnes Of Attraction.avi

      Format : AVI
      Format/Info : Audio Video Interleave
      File size : 42.3 MiB
      Duration : 3mn 46s
      Overall bit rate : 1 568 Kbps
      Writing library : VirtualDub-MPEG2 build 18294/release
   Video
      Format : MPEG-4 Visual
      Format settings, BVOP : Yes
      Format settings, QPel : No
      Format settings, GMC : No warppoints
      Format settings, Matrix : Default
      Muxing mode : Packed bitstream
      Codec ID : DX50
      Codec ID/Hint : DivX 5
      Duration : 3mn 46s
      Bit rate : 1 398 Kbps
      Width : 544 pixels
      Height : 408 pixels
      Display aspect ratio : 4/3
      Frame rate : 25.000 fps
      Resolution : 24 bits
      Scan type : Progressive
      Bits/(Pixel*Frame) : 0.252
      Stream size : 37.7 MiB (89%)
      Writing library : DivX 5.1.1 (Maupiti) (UTC 2003-11-19)
   Audio
      Format : MPEG Audio
      Format version : Version 1
      Format profile : Layer 3
      Codec ID : 55
      Codec ID/Hint : MP3
      Duration : 3mn 46s
      Bit rate mode : Constant
      Bit rate : 160 Kbps
      Channel(s) : 2 channels
      Sampling rate : 48.0 KHz
      Resolution : 16 bits
      Stream size : 4.31 MiB (10%)
      Alignment : Split accross interleaves
      Interleave, duration : 40 ms (1.00 video frame)
      Interleave, preload duration : 500 ms

Vacuum - Science Of The Sacred.avi

      Format : AVI
      Format/Info : Audio Video Interleave
      File size : 56.0 MiB
      Duration : 3mn 46s
      Overall bit rate : 2 078 Kbps
      Writing library : VirtualDub build 18068/release
   Video
      Format : MPEG-4 Visual
      Format settings, BVOP : Yes
      Format settings, QPel : No
      Format settings, GMC : No warppoints
      Format settings, Matrix : Default
      Muxing mode : Packed bitstream
      Codec ID : DX50
      Codec ID/Hint : DivX 5
      Duration : 3mn 46s
      Bit rate : 2 004 Kbps
      Width : 640 pixels
      Height : 480 pixels
      Display aspect ratio : 4/3
      Frame rate : 25.000 fps
      Resolution : 24 bits
      Colorimetry : 4:2:0
      Scan type : Progressive
      Bits/(Pixel*Frame) : 0.261
      Stream size : 54.0 MiB (96%)
      Writing library : DivX 5.1.0 (UTC 2003-09-02)
   Audio
      Format : MPEG Audio
      Format version : Version 1
      Format profile : Layer 3
      Codec ID : 55
      Codec ID/Hint : MP3
      Duration : 3mn 46s
      Bit rate mode : Constant
      Bit rate : 64.0 Kbps
      Channel(s) : 1 channel
      Sampling rate : 44.1 KHz
      Resolution : 16 bits
      Video delay : 24ms
      Stream size : 1.72 MiB (3%)
      Alignment : Split accross interleaves
      Interleave, duration : 40 ms (1.00 video frame)
      Interleave, preload duration : 497 ms

Vacuum - Pride In My Religion.avi

      Format : AVI
      Format/Info : Audio Video Interleave
      File size : 57.4 MiB
      Duration : 3mn 52s
      Overall bit rate : 2 072 Kbps
      Writing library : VirtualDub build 18068/release
   Video
      Format : MPEG-4 Visual
      Format settings, BVOP : Yes
      Format settings, QPel : No
      Format settings, GMC : No warppoints
      Format settings, Matrix : Default
      Muxing mode : Packed bitstream
      Codec ID : DX50
      Codec ID/Hint : DivX 5
      Duration : 3mn 52s
      Bit rate : 1 998 Kbps
      Width : 640 pixels
      Height : 480 pixels
      Display aspect ratio : 4/3
      Frame rate : 25.000 fps
      Resolution : 24 bits
      Colorimetry : 4:2:0
      Scan type : Progressive
      Bits/(Pixel*Frame) : 0.260
      Stream size : 55.3 MiB (96%)
      Writing library : DivX 5.1.0 (UTC 2003-09-02)
   Audio
      Format : MPEG Audio
      Format version : Version 1
      Format profile : Layer 3
      Codec ID : 55
      Codec ID/Hint : MP3
      Duration : 3mn 52s
      Bit rate mode : Constant
      Bit rate : 64.0 Kbps
      Channel(s) : 1 channel
      Sampling rate : 44.1 KHz
      Resolution : 16 bits
      Stream size : 1.76 MiB (3%)
      Alignment : Split accross interleaves
      Interleave, duration : 40 ms (1.00 video frame)
      Interleave, preload duration : 497 ms

Vacuum - Pride In My Religion.avi

      Format : AVI
      Format/Info : Audio Video Interleave
      File size : 66.4 MiB
      Duration : 4mn 1s
      Overall bit rate : 2 312 Kbps
      Writing library : VirtualDub build 16297/release
   Video
      Format : MPEG-4 Visual
      Format settings, BVOP : Yes
      Format settings, QPel : No
      Format settings, GMC : No warppoints
      Format settings, Matrix : Default
      Codec ID : DX50
      Codec ID/Hint : DivX 5
      Duration : 4mn 1s
      Bit rate : 2 178 Kbps
      Width : 384 pixels
      Height : 288 pixels
      Display aspect ratio : 4/3
      Frame rate : 25.000 fps
      Resolution : 24 bits
      Scan type : Progressive
      Bits/(Pixel*Frame) : 0.788
      Stream size : 62.6 MiB (94%)
      Writing library : DivX 5.0.5 (UTC 2003-04-24)
   Audio
      Format : MPEG Audio
      Format version : Version 1
      Format profile : Layer 3
      Codec ID : 55
      Codec ID/Hint : MP3
      Duration : 4mn 1s
      Bit rate mode : Constant
      Bit rate : 128 Kbps
      Channel(s) : 1 channel
      Sampling rate : 44.1 KHz
      Resolution : 16 bits
      Stream size : 3.68 MiB (6%)
      Alignment : Split accross interleaves
      Interleave, duration : 200 ms (5.00 video frames)
      Interleave, preload duration : 200 ms
      Writing library : LAME3.93
      Encoding settings : CBR


Vacuum - Let The Mountain Come To Me.vob


      Format : MPEG-PS
      File size : 213 MiB
      Duration : 3mn 25s
      Overall bit rate : 8 668 Kbps
   Video #224
      ID : 224 (0xE0)
      Format : MPEG Video
      Format version : Version 2
      Format profile : Main@Main
      Format settings, Matrix : Default
      Duration : 3mn 25s
      Bit rate mode : Variable
      Bit rate : 6 531 Kbps
      Nominal bit rate : 9 800 Kbps
      Width : 720 pixels
      Height : 576 pixels
      Display aspect ratio : 4/3
      Frame rate : 25.000 fps
      Standard : PAL
      Colorimetry : 4:2:0
      Scan type : Interlaced
      Scan order : Top Field First
      Bits/(Pixel*Frame) : 0.630
   Audio #160
      ID : 160 (0xA0)
      Format : PCM
      Format settings, Endianness : Big
      Format settings, Sign : Signed
      Duration : 3mn 25s
      Bit rate mode : Constant
      Bit rate : 1 536 Kbps
      Channel(s) : 2 channels
      Channel positions : Front: L R
      Sampling rate : 48.0 KHz

Vacuum - Let The Mountain Come To Me.avi


      Format : AVI
      Format/Info : Audio Video Interleave
      File size : 65.5 MiB
      Duration : 3mn 25s
      Overall bit rate : 2 670 Kbps
      Writing application : VirtualDubMod 1.5.10.2 (build 2540/release)
      Writing library : VirtualDubMod build 2540/release
   Video
      Format : h264
      Codec ID : h264
      Duration : 3mn 25s
      Bit rate : 2 435 Kbps
      Width : 720 pixels
      Height : 552 pixels
      Display aspect ratio : 4/3
      Frame rate : 25.000 fps
      Resolution : 24 bits
      Bits/(Pixel*Frame) : 0.245
      Stream size : 59.7 MiB (91%)
   Audio
      Format : AC-3
      Format/Info : Audio Coding 3
      Codec ID : 2000
      Duration : 3mn 25s
      Bit rate mode : Constant
      Bit rate : 224 Kbps
      Channel(s) : 2 channels
      Channel positions : L R
      Sampling rate : 48.0 KHz
      Stream size : 5.50 MiB (8%)
      Alignment : Split accross interleaves
      Interleave, duration : 40 ms (1.00 video frame)
      Interleave, preload duration : 500 ms

Vacuum - Icaros.avi

      Format : AVI
      Format/Info : Audio Video Interleave
      File size : 34.4 MiB
      Duration : 3mn 54s
      Overall bit rate : 1 233 Kbps
      Mastered date : Sun Sep  1 12:48:11 2002
      Writing application : C:\PROGRAM FILES\ASUS\ASUS DIGITAL VCR\ASUSDVCR.EXE -AVICAP32- ASUS Video Capture Driver, Version:  3.8.2.7
   Video
      Format : MPEG-4 Visual
      Codec ID : MPG3
      Codec ID/Info : (MPEG-4) MS MPEG-4 v3
      Codec ID/Hint : FFmpeg DivX 3
      Duration : 3mn 54s
      Bit rate : 826 Kbps
      Width : 352 pixels
      Height : 288 pixels
      Display aspect ratio : 1.222
      Frame rate : 23.448 fps
      Resolution : 24 bits
      Bits/(Pixel*Frame) : 0.347
      Stream size : 23.1 MiB (67%)
   Audio
      Format : PCM
      Format settings, Endianness : Little
      Format settings, Sign : Unsigned
      Codec ID : 1
      Codec ID/Hint : Microsoft
      Duration : 3mn 54s
      Bit rate mode : Constant
      Bit rate : 352.8 Kbps
      Channel(s) : 1 channel
      Sampling rate : 22.05 KHz
      Resolution : 16 bits
      Stream size : 9.86 MiB (29%)
      Interleave, duration : 511 ms (11.97 video frames)
Vacuum - I Breathe.avi

      Format : AVI
      Format/Info : Audio Video Interleave
      File size : 86.7 MiB
      Duration : 3mn 55s
      Overall bit rate : 3 084 Kbps
   Video
      Format : MPEG-4 Visual
      Format settings, BVOP : Yes
      Format settings, QPel : No
      Format settings, GMC : No warppoints
      Format settings, Matrix : Default
      Muxing mode : Packed bitstream
      Codec ID : DX50
      Codec ID/Hint : DivX 5
      Duration : 3mn 55s
      Bit rate : 2 879 Kbps
      Width : 640 pixels
      Height : 480 pixels
      Display aspect ratio : 4/3
      Frame rate : 25.000 fps
      Resolution : 24 bits
      Colorimetry : 4:2:0
      Scan type : Progressive
      Bits/(Pixel*Frame) : 0.375
      Stream size : 81.0 MiB (93%)
      Writing library : DivX 5.0.4 (UTC 2003-04-17)
   Audio
      Format : MPEG Audio
      Format version : Version 1
      Format profile : Layer 3
      Codec ID : 55
      Codec ID/Hint : MP3
      Bit rate mode : Constant
      Bit rate : 192 Kbps
      Channel(s) : 2 channels
      Sampling rate : 48.0 KHz
      Resolution : 16 bits
      Stream size : 5.39 MiB (6%)
      Alignment : Split accross interleaves
      Interleave, duration : 24 ms (0.60 video frame)

Vacuum Ft K - They Do It.mpg

      Format : MPEG-PS
      File size : 135 MiB
      Duration : 3mn 55s
      Overall bit rate : 4 819 Kbps
      Writing library : Aug  4 2006
   Video #224
      ID : 224 (0xE0)
      Format : MPEG Video
      Format version : Version 2
      Format profile : Main@Main
      Format settings, Matrix : Default
      Duration : 3mn 55s
      Bit rate mode : Variable
      Bit rate : 4 260 Kbps
      Nominal bit rate : 15.0 Mbps
      Width : 720 pixels
      Height : 576 pixels
      Display aspect ratio : 4/3
      Frame rate : 25.000 fps
      Standard : PAL
      Colorimetry : 4:2:0
      Scan type : Interlaced
      Scan order : Top Field First
      Bits/(Pixel*Frame) : 0.411
      Writing library : Aug  4 2006
   Audio #128
      ID : 128 (0x80)
      Format : AC-3
      Format/Info : Audio Coding 3
      Duration : 3mn 55s
      Bit rate mode : Constant
      Bit rate : 224 Kbps
      Channel(s) : 2 channels
      Channel positions : L R
      Sampling rate : 48.0 KHz
      Video delay : -40ms
Vacuum - Fools Like Me.avi

      Format/Info : Audio Video Interleave
      File size : 18.1 MiB
      Duration : 3mn 31s
      Overall bit rate : 718 Kbps
      Writing library : VirtualDub build 18068/release
   Video
      Format : MPEG-4 Visual
      Format settings, BVOP : Yes
      Format settings, QPel : No
      Format settings, GMC : No warppoints
      Format settings, Matrix : Default
      Muxing mode : Packed bitstream
      Codec ID : DX50
      Codec ID/Hint : DivX 5
      Duration : 3mn 31s
      Bit rate : 688 Kbps
      Width : 352 pixels
      Height : 288 pixels
      Display aspect ratio : 1.222
      Frame rate : 25.000 fps
      Resolution : 24 bits
      Colorimetry : 4:2:0
      Scan type : Progressive
      Bits/(Pixel*Frame) : 0.271
      Stream size : 17.3 MiB (96%)
      Writing library : DivX 5.1.0 (UTC 2003-09-02)
   Audio
      Format : MPEG Audio
      Format version : Version 2.5
      Format profile : Layer 3
      Codec ID : 55
      Codec ID/Hint : MP3
      Duration : 3mn 31s
      Bit rate mode : Variable
      Bit rate : 19.9 Kbps
      Channel(s) : 1 channel
      Sampling rate : 11.025 KHz
      Resolution : 16 bits
      Stream size : 513 KiB (3%)
      Alignment : Split accross interleaves
      Interleave, duration : 34 ms (0.84 video frame)
      Interleave, preload duration : 502 ms

И ещё есть 4 песни с МХАТАа, там качество получше, чем здесь выкладывали


03-04-2009 16:01
   
Midnight_girl
Кавайные Ушки
Avatar
From: Russia, Volzhskiy
Registered: 11-12-2004
Posts: 1257
2V/ov/a: ес-но надо :)) Можешь куда-нить скинуть или где-нить в торрентах выложить? :))

Last edited by Midnight_girl (03-04-2009 16:33)


_______________________________________


03-04-2009 16:32
   
V/ov/A
Гражданин креветко
Avatar
From: RUSSI/A
Registered: 21-10-2004
Posts: 424
Надо всё, или выборочно?) Вроде, на They do it и Let The Mountain Come To Me.vob уже тут ссылки кидались, ну и на I breathe, так качество такое же, практически.

03-04-2009 16:38
   
Midnight_girl
Кавайные Ушки
Avatar
From: Russia, Volzhskiy
Registered: 11-12-2004
Posts: 1257
Tonnes Of Attraction
Science Of The Sacred
Pride In My Religion (640*480 который)
Icaros
Fools Like Me
вот это все у меня в худшем качестве (а tonnes of attraction вообще исчез загадочным образом).
и мхат тоже хотелось бы посмотреть %)


_______________________________________


04-04-2009 07:35
   
Milady777
V/IP-agent
Avatar
From: N.Novgorod
Registered: 28-12-2005
Posts: 1555
Я бы тоже хотела Tonnes, Science и Pride! Тока если в хорошем качестве, без всяких там расхождений звука с видео и помехов...

_______________________________________
V/ox emissa v/olat, litera scripta manet...
Russian V/Community
DEMAND VACUUM FOR YOUR CITY HERE!!!


04-04-2009 08:35
Website  
V/ov/A
Гражданин креветко
Avatar
From: RUSSI/A
Registered: 21-10-2004
Posts: 424
Так, нашёл icaros - 191 мегабайт, как его докачаю, начну потихоньку выкладывать.)

04-04-2009 15:11
   
Midnight_girl
Кавайные Ушки
Avatar
From: Russia, Volzhskiy
Registered: 11-12-2004
Posts: 1257
Даффай, даффай, мы в тебя верим %)
Вчера скачала с торрентов дивидюк BWO %) так клева смотреть клипы в отличном качестве...


_______________________________________


05-04-2009 10:27
   
V/ov/A
Гражданин креветко
Avatar
From: RUSSI/A
Registered: 21-10-2004
Posts: 424
http://rapidshare.com/files/225163906/V ... n.avi.html
http://rapidshare.com/files/225166013/V ... ike_Me.avi
http://rapidshare.com/files/225172323/V ... Sacred.avi
http://rapidshare.com/files/225178305/V ... ligion.avi 
Icaros и Мхат чуть попозже выложу.


24-04-2009 10:35
   
THE-0
Speaker&Speller
Avatar
From: Novosibirsk
Registered: 22-11-2007
Posts: 388
ооо, пасиба:)

_______________________________________
ёпрст, весна))

http://www.myspace.com/alsitsmusic

24-04-2009 11:06
   
Midnight_girl
Кавайные Ушки
Avatar
From: Russia, Volzhskiy
Registered: 11-12-2004
Posts: 1257
Спасибки )
скачала один файлик, дебильная рапидшара отказывается отдавать второй, типа лимит превысила. бу.


_______________________________________


24-04-2009 11:09
   
V/ov/A
Гражданин креветко
Avatar
From: RUSSI/A
Registered: 21-10-2004
Posts: 424
http://rapidshare.com/files/225228155/V ... 2.avi.html
http://rapidshare.com/files/225231047/V ... _.avi.html
http://rapidshare.com/files/225234126/V ... _.avi.html  Эт с МХАТа.
Ещё у меня есть Концерт в Салехарде, ссылки на него
http://manntra.vacuum-music.com/media/S ... d_01-2.rar
http://manntra.vacuum-music.com/media/S ... d_02-1.rar
http://manntra.vacuum-music.com/media/S ... d_02_2.rar
сейчас, вроде, не рабочие, по непонятным мне причинам, (или я не доглядел) никто на форум эти ссылки не  закинул, а лежали они на vacuum-community, кое-кому я уже вконтакте их кидал, но если кому-то нужно, и, если Жанна разрешит, могу их перезалить.


24-04-2009 11:29
   
Midnight_girl
Кавайные Ушки
Avatar
From: Russia, Volzhskiy
Registered: 11-12-2004
Posts: 1257
перезалей, конечно. О_о
жесть. это полная версия? хотю-хотю-хотю. >_<


_______________________________________


24-04-2009 12:21
   
V/ov/A
Гражданин креветко
Avatar
From: RUSSI/A
Registered: 21-10-2004
Posts: 424
Да, там полная версия, но, нету Let The Mountain Come To Me. Если Жанна разрешит, то перезалью.

24-04-2009 12:24
   
Pages:  1 2 3 4    
Jump to

 
return to the main page
close this window